#TITLE:U R MAN(Remix);
#SUBTITLE:Tony;
#ARTIST:SS501;
#TITLETRANSLIT:;
#SUBTITLETRANSLIT:;
#ARTISTTRANSLIT:;
#CREDIT:Tony;
#BANNER:u r man-bn.jpg;
#BACKGROUND:u r man-bg.jpg;
#LYRICSPATH:;
#CDTITLE:u r man.png;
#MUSIC:U R MAN(Remix).ogg;
#OFFSET:0.300;
#SAMPLESTART:42.400;
#SAMPLELENGTH:11.960;
#SELECTABLE:YES;
#DISPLAYBPM:117.000;
#BPMS:0.000=117.000,83.000=58.500,83.354=234.000,84.000=117.000,165.000=234.000,166.000=117.000,181.000=234.000,182.000=58.500,190.000=117.000,194.000=234.000,194.250=58.500,194.375=117.000,194.500=234.000,194.750=58.500,194.875=117.000,195.000=234.000,195.250=58.500,195.375=117.000,195.500=234.000,195.750=58.500,195.875=117.000,196.000=234.000,196.250=58.500,196.375=117.000,196.500=234.000,196.750=58.500,196.875=117.000,197.000=58.500,197.333=234.000,197.354=234.000,197.375=234.000,198.000=117.000,260.000=234.000,260.500=58.500,260.750=234.000,261.250=58.500,261.500=117.000,264.000=234.000,264.500=58.500,264.750=234.000,265.250=58.500,265.500=117.000;
#STOPS:146.250=0.020
,146.500=0.020
,165.083=0.040
,165.250=0.040
,165.417=0.040
,165.583=0.040
,165.750=0.040
,165.917=0.060
,181.083=0.040
,181.250=0.040
,181.417=0.040
,181.583=0.040
,181.750=0.040
,181.917=0.060
,192.250=0.020
;
#BGCHANGES:;
// cache tags:
#FIRSTBEAT:4.000;
#LASTBEAT:265.500;
#SONGFILENAME:Songs/SDO/U R MAN(Remix)/U R MAN(Remix).sm;
#HASMUSIC:1;
#HASBANNER:1;
#MUSICLENGTH:142.471;
// end cache tags

//---------------dance-single - ----------------
#NOTES:
     dance-single:
     :
     Hard:
     11:
     1.000,1.000,1.000,0.161,1.000,792.000,285.000,23.000,1.000,101.000:
0000
0000
0000
0000
,
1100
0010
0001
0000
0011
0100
1000
0000
1010
0100
0001
0000
0101
0010
0100
0000
,
1001
0100
0010
0000
0110
0001
0010
0000
1010
0100
1000
0000
1010
0100
0001
0000
,
1100
0010
0100
0000
0101
0010
1000
0000
0011
1000
0100
0000
0110
0001
0010
0000
,
1100
0000
0110
0000
0011
0000
0110
0000
1001
0100
0010
0001
1100
0001
0001
0000
,
0011
0100
1000
0100
1010
0000
0100
0000
1100
0010
0100
0010
1001
0000
0001
0000
,
0101
0010
0100
1000
0110
0000
0100
0000
1010
0100
0001
0100
1010
0000
0010
0000
,
1001
0010
0100
0010
1100
0000
0010
0000
1100
0010
0001
0010
0101
0000
0010
0000
,
1101
0000
1110
0000
0111
0000
1101
0000
1001
1001
0110
0110
1010
0100
0010
0001
,
1110
0000
0100
0010
1100
0000
0010
0000
0101
0010
1000
0000
1100
0000
0100
0000
,
1010
0000
0101
0010
0100
0000
0010
0001
1010
0100
0010
0000
0110
0000
0010
0001
,
1100
0000
0100
0010
1001
0000
0010
0100
0011
0100
1000
0000
1100
0000
0010
0000
,
0101
0000
0001
0000
0101
0000
0010
0000
1001
0000
0100
0000
1001
0000
0001
0001
,
0110
0000
0001
0010
0101
0000
1000
0000
1100
0000
0100
0000
1010
0000
0001
0000
,
1001
0000
0100
0010
1001
0000
0010
0001
1010
0000
0001
0000
0101
0000
0010
0000
,
1100
0000
0100
0100
1001
0000
0010
0000
1001
0100
1000
0100
0010
0001
0010
0001
,
1100
0000
0100
0000
1100
0000
0010
0001
0101
0001
0001
0001
1110
1000
0011
1000
,
2110
0001
0100
3010
1210
0001
1010
0301
0121
0000
0001
0030
0112
0000
1000
0003
,
1210
0010
0310
0100
0121
1000
0100
1030
2201
0000
0010
3300
1221
0000
0001
0330
,
0110
0000
0100
0010
0100
0000
1000
0000
1001
0000
0100
0001
0010
0000
0100
0000
1010
0000
1001
0100
0010
0000
0010
0000
1001
0000
0010
0100
1001
0000
0001
0000
,
1221
0000
0000
0000
1001
1331
0110
0000
,
1101
0000
0000
0100
0010
0000
1100
0000
0000
0010
0000
0000
0110
0000
0000
0010
0001
0000
0110
0000
0000
0100
0000
0000
,
1010
0000
0000
0000
0000
0000
0001
0000
0010
0000
0000
0000
1010
0000
0000
0000
0000
0000
1000
0000
0000
1000
0000
0000
1100
0000
0000
0000
0000
0000
0010
0000
0100
0000
0000
0000
1001
0000
0000
0000
0000
0000
1010
0000
0000
0000
0000
0000
,
1101
0000
0000
0000
0000
0000
0010
0000
0001
0000
0000
0000
1001
0000
0000
0000
0000
0000
1000
0000
0000
0001
0000
0000
0100
0000
0000
0010
0000
0000
0100
0000
0000
0000
0000
0000
1100
0000
0000
0000
0000
0000
1000
0000
0000
0000
0000
0000
,
0110
0000
0100
1000
0011
0000
1000
0000
1101
0000
1001
0000
1012
0000
0000
0000
,
1113
0000
0000
0100
0010
0000
1010
0000
0000
1000
0000
0000
1100
0000
0000
0010
0100
0000
0101
0000
0000
0001
0000
0000
,
0011
0000
0000
0000
0000
0000
0100
0000
1000
0000
0000
0000
0110
0000
0000
0000
0000
0000
0010
0000
0000
0010
0000
0000
1001
0000
0000
0000
0000
0000
1001
0000
0000
0000
0000
0000
1101
0000
0000
0000
0000
0000
1001
0000
0000
0000
0000
0000
,
0111
0000
0000
0000
0000
0000
0010
0000
0001
0000
0000
0000
0011
0000
0000
0000
0000
0000
0010
0000
0000
0100
0000
0000
1000
0000
0000
0000
0000
0000
1000
0000
0000
0000
0000
0000
1100
0000
0000
0000
0000
0000
0100
0000
0000
0010
0000
0000
,
1101
0000
0010
0100
1011
0000
1000
0100
1011
0000
0000
0000
0220
0000
0000
0000
,
1331
0010
0100
0010
1100
0001
0100
0010
0101
1000
0010
1000
0110
1000
0010
0001
,
1010
0100
0010
0001
1010
0100
0010
1000
0110
1000
0001
0010
0101
0010
0100
0010
,
1100
0001
0100
0010
1100
0001
0100
1000
0110
1000
0100
0010
0101
1000
0010
0001
,
1011
1000
0100
0010
1100
0001
0100
1000
0110
1000
0001
0100
1010
0001
0100
0010
,
1011
0001
0100
0010
1100
1000
0010
0001
0101
0010
0100
1000
1100
0010
0101
0001
,
1010
0001
0100
0010
1011
0100
0010
0001
1110
1000
0011
1000
0111
0010
0001
0100
,
1101
1000
0100
1000
0101
0010
0100
0010
1010
0100
1000
0010
1101
0001
0010
1000
,
1110
0111
1101
1011
0111
0000
0000
0000
,
1110
0000
0000
0000
0000
0000
0100
0000
0000
0000
0000
0000
1000
0000
0100
0000
0010
0000
0001
0000
0010
0000
0100
0000
1011
0000
0000
0000
0000
0000
0010
0000
0000
0010
0000
0000
1001
0000
0000
0000
0000
0000
0100
0000
0000
1000
0000
0000
,
1100
0010
0100
0010
0101
0000
0010
0001
1100
0000
0010
0100
1010
0000
1000
0100
,
1001
0100
0010
0001
0110
0000
0010
0010
1001
0010
0100
0000
1000
0100
1000
0100
,
1010
0001
0010
0100
0010
0100
1000
0100
1011
1000
0110
1000
1010
0100
0010
0001
,
1110
0000
0000
0000
0000
0000
0110
0000
0000
0000
0000
0000
0001
0000
1000
0000
0001
0000
1000
0000
0001
0000
1000
0000
1101
0000
0000
0000
0000
0000
0100
0000
0000
0010
0000
0000
1100
0000
0000
0000
0000
0000
0001
0000
0000
0010
0000
0000
,
1001
0010
0100
0010
1100
0000
0010
0010
1001
0000
1000
0100
1010
0000
0010
0001
,
1010
0100
0010
0100
0011
0000
0001
0000
1100
0001
0010
0000
1001
0100
0010
0100
,
0010
0001
0010
0001
1010
0100
0010
0100
1011
0001
0101
1001
1101
0010
1001
0001
,
1111
0000
0000
0000
0000
0000
0000
0000
0000
0000
0000
0000
0001
0000
0001
0000
0001
0000
0001
0000
0001
0000
0001
0000
110M
0000
0000
0010
0000
0000
0001
0000
0000
0010
0000
0000
0000
0000
0000
0010
0000
0000
0001
0000
0000
1000
0000
0000
,
1100
0000
0010
0000
0100
0000
0010
0000
0000
0000
0010
0000
0100
0000
1000
0000
0210
1000
0001
0010
0001
0000
0320
0000
0000
0000
1000
0100
1030
0000
0001
0010
,
0200
0010
0011
1000
1310
0000
0000
0000
1011
0000
0100
0100
1001
0000
0010
0010
,
1001
0000
0000
0000
1101
0111
1101
0111
,
1221
0000
0000
1001
0000
0000
1001
0000
0000
0000
0000
0000
1331
0000
0000
0100
0010
0000
1100
0000
0000
0010
0000
0000
,
0110
0000
0000
0000
0000
0000
0010
0000
0001
0000
0000
0000
0110
0000
0000
0000
0000
0000
0100
0000
0000
0000
0000
0000
1010
0000
0000
0000
0000
0000
0001
0000
0010
0000
0000
0000
1010
0000
0000
0000
0000
0000
1000
0000
0000
1000
0000
0000
,
1100
0000
0000
0000
0000
0000
0010
0000
0100
0000
0000
0000
1001
0000
0000
0000
0000
0000
1010
0000
0000
0000
0000
0000
1101
0000
0000
0000
0000
0000
0010
0000
0001
0000
0000
0000
1001
0000
0000
0000
0000
0000
1000
0000
0000
0001
0000
0000
,
0100
0010
0100
0000
1100
0000
1000
0000
0110
0000
0100
1000
0011
0000
1000
0000
,
1101
0000
0000
1001
0000
0000
1012
0000
0000
0000
0000
0000
1113
0000
0000
0100
0010
0000
1010
0000
0000
1000
0000
0000
,
1100
0000
0000
0000
0000
0000
0010
0000
0100
0000
0000
0000
0101
0000
0000
0000
0000
0000
0001
0000
0000
0000
0000
0000
0011
0000
0000
0000
0000
0000
0100
0000
1000
0000
0000
0000
0110
0000
0000
0000
0000
0000
0010
0000
0000
0010
0000
0000
,
1001
0000
0000
0000
0000
0000
1001
0000
0000
0000
0000
0000
1101
0000
0000
0000
0000
0000
1001
0000
0000
0000
0000
0000
0111
0000
0000
0000
0000
0000
0010
0000
0001
0000
0000
0000
0011
0000
0000
0000
0000
0000
0010
0000
0000
0100
0000
0000
,
1000
0000
1000
0000
1100
0000
0100
0010
1101
0000
0010
0100
1011
0000
1000
0100
,
1011
0000
0000
0000
0220
0000
0000
0000
1331
0100
0010
0001
1110
0001
0100
0010
,
1101
1000
0010
0001
1110
0100
0010
0001
1011
0100
0010
0100
1011
0100
0010
1000
,
0111
1000
0001
0010
1101
0010
0100
0010
1100
0001
0100
0010
1101
0001
0100
1000
,
1110
1000
0100
0010
0101
1000
0010
0001
1011
1000
0100
0010
1101
0001
0100
1000
,
0110
1000
0001
0100
1010
0001
1100
0010
1011
0001
0100
0010
1101
1000
0010
0001
,
1101
0010
0100
1000
1100
0010
0101
0001
1010
0001
0100
0010
1011
0100
0010
0001
,
1110
1000
0011
1000
0111
0010
0001
0100
1101
1000
0100
1000
1101
0010
0100
0010
,
1110
0100
1001
0010
1101
0001
0010
1001
1110
0000
0111
0000
1101
0000
1011
0000
,
0111
0000
0000
1110
0000
0000
0111
0000
1110
0000
0000
0000
0000
0000
0000
0000
,
1001
0000
0000
0110
0000
0000
1001
0000
0000
0000
0000
0000
0000
0000
0000
0000
;
